(Vocal Jazz) [CD] Peggy Lee - Pretty Eyes / Guitars Ala Lee - 1999, FLAC (tracks+.cue), lossless

Страницы:  1
Ответить
Автор
Сообщение

papa1954

Top Seed 09* 10240r

Стаж: 12 лет 5 месяцев

Сообщений: 16969

papa1954 · 10-Окт-16 22:21 (2 года 10 месяцев назад, ред. 12-Окт-16 01:39)

Peggy Lee - Pretty Eyes / Guitars Alà Lee Жанр: Vocal Jazz
Носитель: CD
Год издания: 1999
Издатель (лейбл): EMI
Bar code: 7243 4 98883 2 6
Аудиокодек: FLAC (*.flac)
Тип рипа: tracks+.cue
Битрейт аудио: lossless
Продолжительность: 64:13
Источник (релизер): What.cd (robman62)
Наличие сканов в содержимом раздачи: да
Треклист:
Pretty Eyes (1960)
01. As You Desire Me (2:54)
02. It Could Happen To You (2:28)
03. Pretty Eyes (2:38)
04. Moments Like This (1:57)
05. Remind Me (4:24)
06. You Fascinate Me So (2:12)
07. I Wanna Be Loved (3:05)
08. I'm Walking Through Heaven With You (2:42)
09. I Remember You (2:34)
10. Too Close For Comfort (2:23)
11. In Other Words (3:00)
12. Because I Love Him So (3:09)
Guitars Alà Lee (1966)
13. Nice 'N' Easy (2:32)
14. Strangers In The Night (2:29)
15. Mohair Sam (2:11)
16. Goodbye My Love (2:56)
17. Think Beautiful (2:28)
18. An Empty Glass (2:51)
19. Good Times (2:36)
20. Sweet Happy Life (2:09)
21. Touch The Earth (2:31)
22. Beautiful, Beatiful World (2:39)
23. My Guitar (2:50)
24. Call Me (2:34)
 
Лог создания рипа
Exact Audio Copy V1.1 from 23. June 2015
EAC extraction logfile from 9. October 2016, 14:31
Peggy Lee / Pretty Eyes / Guitars Alà Lee
Used drive : PBDS CD-ROM DH-48N1S Adapter: 1 ID: 0
Read mode : Secure
Utilize accurate stream : Yes
Defeat audio cache : Yes
Make use of C2 pointers : No
Read offset correction : 6
Overread into Lead-In and Lead-Out : No
Fill up missing offset samples with silence : Yes
Delete leading and trailing silent blocks : No
Null samples used in CRC calculations : Yes
Used interface : Native Win32 interface for Win NT & 2000
Gap handling : Appended to previous track
Used output format : User Defined Encoder
Selected bitrate : 768 kBit/s
Quality : High
Add ID3 tag : No
Command line compressor : C:\Program Files (x86)\Exact Audio Copy\FLAC\FLAC.EXE
Additional command line options : -8 -V -T "ARTIST=%artist%" -T "TITLE=%title%" -T "ALBUM=%albumtitle%" -T "DATE=%year%" -T "TRACKNUMBER=%tracknr%" -T "GENRE=%genre%" -T "PERFORMER=%albuminterpret%" -T "COMPOSER=%composer%" %haslyrics%--tag-from-file=LYRICS="%lyricsfile%"%haslyrics% -T "ALBUMARTIST=%albumartist%" -T "DISCNUMBER=%cdnumber%" -T "TOTALDISCS=%totalcds%" -T "TOTALTRACKS=%numtracks%" -T "COMMENT=%comment%" %source% -o %dest%
TOC of the extracted CD
Track | Start | Length | Start sector | End sector
---------------------------------------------------------
1 | 0:00.00 | 2:53.70 | 0 | 13044
2 | 2:53.70 | 2:27.52 | 13045 | 24121
3 | 5:21.47 | 2:37.53 | 24122 | 35949
4 | 7:59.25 | 1:57.32 | 35950 | 44756
5 | 9:56.57 | 4:24.35 | 44757 | 64591
6 | 14:21.17 | 2:12.18 | 64592 | 74509
7 | 16:33.35 | 3:05.35 | 74510 | 88419
8 | 19:38.70 | 2:41.52 | 88420 | 100546
9 | 22:20.47 | 2:34.33 | 100547 | 112129
10 | 24:55.05 | 2:23.37 | 112130 | 122891
11 | 27:18.42 | 2:59.70 | 122892 | 136386
12 | 30:18.37 | 3:08.43 | 136387 | 150529
13 | 33:27.05 | 2:32.27 | 150530 | 161956
14 | 35:59.32 | 2:28.43 | 161957 | 173099
15 | 38:28.00 | 2:10.40 | 173100 | 182889
16 | 40:38.40 | 2:56.07 | 182890 | 196096
17 | 43:34.47 | 2:27.48 | 196097 | 207169
18 | 46:02.20 | 2:50.57 | 207170 | 219976
19 | 48:53.02 | 2:36.23 | 219977 | 231699
20 | 51:29.25 | 2:09.05 | 231700 | 241379
21 | 53:38.30 | 2:30.57 | 241380 | 252686
22 | 56:09.12 | 2:39.25 | 252687 | 264636
23 | 58:48.37 | 2:49.63 | 264637 | 277374
24 | 61:38.25 | 2:34.20 | 277375 | 288944
Track 1
Filename C:\EACRips\01 - As You Desire Me.wav
Pre-gap length 0:00:02.00
Peak level 81.4 %
Extraction speed 2.3 X
Track quality 99.9 %
Test CRC 1AF0D9D8
Copy CRC 1AF0D9D8
Accurately ripped (confidence 4) [6DC77567] (AR v2)
Copy OK
Track 2
Filename C:\EACRips\02 - It Could Happen To You.wav
Pre-gap length 0:00:00.97
Peak level 86.5 %
Extraction speed 3.3 X
Track quality 99.9 %
Test CRC CA5C177F
Copy CRC CA5C177F
Accurately ripped (confidence 4) [B695F4DD] (AR v2)
Copy OK
Track 3
Filename C:\EACRips\03 - Pretty Eyes.wav
Pre-gap length 0:00:00.80
Peak level 74.2 %
Extraction speed 3.6 X
Track quality 99.9 %
Test CRC 10DDAEF3
Copy CRC 10DDAEF3
Accurately ripped (confidence 4) [45878DDF] (AR v2)
Copy OK
Track 4
Filename C:\EACRips\04 - Moments Like This.wav
Pre-gap length 0:00:01.04
Peak level 97.9 %
Extraction speed 4.3 X
Track quality 100.0 %
Test CRC 47A5A2BE
Copy CRC 47A5A2BE
Accurately ripped (confidence 4) [73959FC9] (AR v2)
Copy OK
Track 5
Filename C:\EACRips\05 - Remind Me.wav
Pre-gap length 0:00:01.16
Peak level 73.9 %
Extraction speed 5.4 X
Track quality 100.0 %
Test CRC 33789493
Copy CRC 33789493
Accurately ripped (confidence 4) [8D566FF7] (AR v2)
Copy OK
Track 6
Filename C:\EACRips\06 - You Fascinate Me So.wav
Pre-gap length 0:00:01.36
Peak level 97.9 %
Extraction speed 5.1 X
Track quality 100.0 %
Test CRC F727284A
Copy CRC F727284A
Accurately ripped (confidence 4) [2BDDAF3D] (AR v2)
Copy OK
Track 7
Filename C:\EACRips\07 - I Wanna Be Loved.wav
Pre-gap length 0:00:00.97
Peak level 84.6 %
Extraction speed 5.2 X
Track quality 100.0 %
Test CRC 47274AE7
Copy CRC 47274AE7
Accurately ripped (confidence 4) [0C9A49B4] (AR v2)
Copy OK
Track 8
Filename C:\EACRips\08 - I'm Walking Through Heaven With You.wav
Pre-gap length 0:00:01.64
Peak level 97.9 %
Extraction speed 2.3 X
Track quality 99.9 %
Test CRC 5CDB3918
Copy CRC 5CDB3918
Accurately ripped (confidence 4) [95BE7D21] (AR v2)
Copy OK
Track 9
Filename C:\EACRips\09 - I Remember You.wav
Pre-gap length 0:00:00.66
Peak level 76.1 %
Extraction speed 3.2 X
Track quality 100.0 %
Test CRC 80877CD9
Copy CRC 80877CD9
Accurately ripped (confidence 4) [8ED06432] (AR v2)
Copy OK
Track 10
Filename C:\EACRips\10 - Too Close For Comfort.wav
Pre-gap length 0:00:01.33
Peak level 97.9 %
Extraction speed 3.3 X
Track quality 100.0 %
Test CRC ECE77514
Copy CRC ECE77514
Accurately ripped (confidence 4) [A91B47AE] (AR v2)
Copy OK
Track 11
Filename C:\EACRips\11 - In Other Words.wav
Pre-gap length 0:00:01.29
Peak level 92.4 %
Extraction speed 3.6 X
Track quality 99.9 %
Test CRC 667351B0
Copy CRC 667351B0
Accurately ripped (confidence 4) [AB9EA973] (AR v2)
Copy OK
Track 12
Filename C:\EACRips\12 - Because I Love Him So.wav
Pre-gap length 0:00:01.62
Peak level 97.9 %
Extraction speed 3.2 X
Track quality 99.9 %
Test CRC 8795C54C
Copy CRC 8795C54C
Accurately ripped (confidence 4) [5CABDA98] (AR v2)
Copy OK
Track 13
Filename C:\EACRips\13 - Nice 'N' Easy.wav
Pre-gap length 0:00:00.46
Peak level 97.9 %
Extraction speed 2.9 X
Track quality 99.9 %
Test CRC E085D4E5
Copy CRC E085D4E5
Accurately ripped (confidence 4) [62C1E413] (AR v2)
Copy OK
Track 14
Filename C:\EACRips\14 - Strangers In The Night.wav
Pre-gap length 0:00:00.80
Peak level 81.6 %
Extraction speed 3.2 X
Track quality 100.0 %
Test CRC 8D554B33
Copy CRC 8D554B33
Accurately ripped (confidence 4) [54BEA947] (AR v2)
Copy OK
Track 15
Filename C:\EACRips\15 - Mohair Sam.wav
Pre-gap length 0:00:01.04
Peak level 91.7 %
Extraction speed 2.6 X
Track quality 100.0 %
Test CRC 361AE957
Copy CRC 361AE957
Accurately ripped (confidence 4) [7C563860] (AR v2)
Copy OK
Track 16
Filename C:\EACRips\16 - Goodbye My Love.wav
Pre-gap length 0:00:00.97
Peak level 72.0 %
Extraction speed 3.9 X
Track quality 100.0 %
Test CRC 0540EEBC
Copy CRC 0540EEBC
Accurately ripped (confidence 4) [90E9AEBF] (AR v2)
Copy OK
Track 17
Filename C:\EACRips\17 - Think Beautiful.wav
Pre-gap length 0:00:01.53
Peak level 93.1 %
Extraction speed 3.2 X
Track quality 100.0 %
Test CRC 17C3F748
Copy CRC 17C3F748
Accurately ripped (confidence 4) [E31F8351] (AR v2)
Copy OK
Track 18
Filename C:\EACRips\18 - An Empty Glass.wav
Pre-gap length 0:00:01.00
Peak level 91.3 %
Extraction speed 4.8 X
Track quality 100.0 %
Test CRC D4A61111
Copy CRC D4A61111
Accurately ripped (confidence 4) [74011375] (AR v2)
Copy OK
Track 19
Filename C:\EACRips\19 - Good Times.wav
Pre-gap length 0:00:01.00
Peak level 97.9 %
Extraction speed 5.7 X
Track quality 100.0 %
Test CRC FF8B4623
Copy CRC FF8B4623
Accurately ripped (confidence 4) [55F97881] (AR v2)
Copy OK
Track 20
Filename C:\EACRips\20 - Sweet Happy Life.wav
Pre-gap length 0:00:01.33
Peak level 97.9 %
Extraction speed 6.4 X
Track quality 100.0 %
Test CRC 3FF3363D
Copy CRC 3FF3363D
Accurately ripped (confidence 4) [D9BD47B0] (AR v2)
Copy OK
Track 21
Filename C:\EACRips\21 - Touch The Earth.wav
Pre-gap length 0:00:01.24
Peak level 67.4 %
Extraction speed 7.3 X
Track quality 100.0 %
Test CRC 3A98E796
Copy CRC 3A98E796
Accurately ripped (confidence 4) [FA7A055F] (AR v2)
Copy OK
Track 22
Filename C:\EACRips\22 - Beautiful, Beatiful World.wav
Pre-gap length 0:00:00.29
Peak level 97.9 %
Extraction speed 6.2 X
Track quality 99.9 %
Test CRC F2738463
Copy CRC F2738463
Accurately ripped (confidence 4) [C42B5B1C] (AR v2)
Copy OK
Track 23
Filename C:\EACRips\23 - My Guitar.wav
Pre-gap length 0:00:00.93
Peak level 71.8 %
Extraction speed 7.9 X
Track quality 100.0 %
Test CRC 20C718D8
Copy CRC 20C718D8
Accurately ripped (confidence 4) [8038581E] (AR v2)
Copy OK
Track 24
Filename C:\EACRips\24 - Call Me.wav
Pre-gap length 0:00:01.00
Peak level 97.9 %
Extraction speed 7.7 X
Track quality 100.0 %
Test CRC 2BF29A16
Copy CRC 2BF29A16
Accurately ripped (confidence 3) [3732550D] (AR v2)
Copy OK
All tracks accurately ripped
No errors occurred
End of status report
---- CUETools DB Plugin V2.1.6
[CTDB TOCID: Wg1L2.brDySYTGCdEilr4ZK_b6I-] found
Submit result: Wg1L2.brDySYTGCdEilr4ZK_b6I- has been confirmed
Track | CTDB Status
1 | (6/7) Accurately ripped
2 | (6/7) Accurately ripped
3 | (6/7) Accurately ripped
4 | (6/7) Accurately ripped
5 | (6/7) Accurately ripped
6 | (6/7) Accurately ripped
7 | (6/7) Accurately ripped
8 | (6/7) Accurately ripped
9 | (6/7) Accurately ripped
10 | (6/7) Accurately ripped
11 | (6/7) Accurately ripped
12 | (6/7) Accurately ripped
13 | (6/7) Accurately ripped
14 | (6/7) Accurately ripped
15 | (6/7) Accurately ripped
16 | (6/7) Accurately ripped
17 | (6/7) Accurately ripped
18 | (6/7) Accurately ripped
19 | (6/7) Accurately ripped
20 | (6/7) Accurately ripped
21 | (6/7) Accurately ripped
22 | (6/7) Accurately ripped
23 | (6/7) Accurately ripped
24 | (5/7) Accurately ripped, or (1/7) differs in 1 samples @01:57:24
==== Log checksum C4714F7573FEF6232B581A67E5F8F8C25A9BDB3C644DF19A68097F86F5D34659 ====
Содержание индексной карты (.CUE)
REM GENRE Vocal
REM DATE 1999
REM DISCID 330F0C18
REM COMMENT "ExactAudioCopy v1.1"
CATALOG 0724349888326
PERFORMER "Peggy Lee"
TITLE "Pretty Eyes / Guitars Alà Lee"
FILE "01 - As You Desire Me.wav" WAVE
TRACK 01 AUDIO
TITLE "As You Desire Me"
PERFORMER "Peggy Lee"
INDEX 01 00:00:00
TRACK 02 AUDIO
TITLE "It Could Happen To You"
PERFORMER "Peggy Lee"
INDEX 00 02:52:72
FILE "02 - It Could Happen To You.wav" WAVE
INDEX 01 00:00:00
TRACK 03 AUDIO
TITLE "Pretty Eyes"
PERFORMER "Peggy Lee"
INDEX 00 02:26:67
FILE "03 - Pretty Eyes.wav" WAVE
INDEX 01 00:00:00
TRACK 04 AUDIO
TITLE "Moments Like This"
PERFORMER "Peggy Lee"
INDEX 00 02:36:50
FILE "04 - Moments Like This.wav" WAVE
INDEX 01 00:00:00
TRACK 05 AUDIO
TITLE "Remind Me"
PERFORMER "Peggy Lee"
INDEX 00 01:56:20
FILE "05 - Remind Me.wav" WAVE
INDEX 01 00:00:00
TRACK 06 AUDIO
TITLE "You Fascinate Me So"
PERFORMER "Peggy Lee"
INDEX 00 04:23:08
FILE "06 - You Fascinate Me So.wav" WAVE
INDEX 01 00:00:00
TRACK 07 AUDIO
TITLE "I Wanna Be Loved"
PERFORMER "Peggy Lee"
INDEX 00 02:11:20
FILE "07 - I Wanna Be Loved.wav" WAVE
INDEX 01 00:00:00
TRACK 08 AUDIO
TITLE "I'm Walking Through Heaven With You"
PERFORMER "Peggy Lee"
INDEX 00 03:03:62
FILE "08 - I'm Walking Through Heaven With You.wav" WAVE
INDEX 01 00:00:00
TRACK 09 AUDIO
TITLE "I Remember You"
PERFORMER "Peggy Lee"
INDEX 00 02:41:02
FILE "09 - I Remember You.wav" WAVE
INDEX 01 00:00:00
TRACK 10 AUDIO
TITLE "Too Close For Comfort"
PERFORMER "Peggy Lee"
INDEX 00 02:33:08
FILE "10 - Too Close For Comfort.wav" WAVE
INDEX 01 00:00:00
TRACK 11 AUDIO
TITLE "In Other Words"
PERFORMER "Peggy Lee"
INDEX 00 02:22:15
FILE "11 - In Other Words.wav" WAVE
INDEX 01 00:00:00
TRACK 12 AUDIO
TITLE "Because I Love Him So"
PERFORMER "Peggy Lee"
INDEX 00 02:58:23
FILE "12 - Because I Love Him So.wav" WAVE
INDEX 01 00:00:00
TRACK 13 AUDIO
TITLE "Nice 'N' Easy"
PERFORMER "Peggy Lee"
INDEX 00 03:08:08
FILE "13 - Nice 'N' Easy.wav" WAVE
INDEX 01 00:00:00
TRACK 14 AUDIO
TITLE "Strangers In The Night"
PERFORMER "Peggy Lee"
INDEX 00 02:31:42
FILE "14 - Strangers In The Night.wav" WAVE
INDEX 01 00:00:00
TRACK 15 AUDIO
TITLE "Mohair Sam"
PERFORMER "Peggy Lee"
INDEX 00 02:27:40
FILE "15 - Mohair Sam.wav" WAVE
INDEX 01 00:00:00
TRACK 16 AUDIO
TITLE "Goodbye My Love"
PERFORMER "Peggy Lee"
INDEX 00 02:09:42
FILE "16 - Goodbye My Love.wav" WAVE
INDEX 01 00:00:00
TRACK 17 AUDIO
TITLE "Think Beautiful"
PERFORMER "Peggy Lee"
INDEX 00 02:54:42
FILE "17 - Think Beautiful.wav" WAVE
INDEX 01 00:00:00
TRACK 18 AUDIO
TITLE "An Empty Glass"
PERFORMER "Peggy Lee"
INDEX 00 02:26:48
FILE "18 - An Empty Glass.wav" WAVE
INDEX 01 00:00:00
TRACK 19 AUDIO
TITLE "Good Times"
PERFORMER "Peggy Lee"
INDEX 00 02:49:57
FILE "19 - Good Times.wav" WAVE
INDEX 01 00:00:00
TRACK 20 AUDIO
TITLE "Sweet Happy Life"
PERFORMER "Peggy Lee"
INDEX 00 02:34:73
FILE "20 - Sweet Happy Life.wav" WAVE
INDEX 01 00:00:00
TRACK 21 AUDIO
TITLE "Touch The Earth"
PERFORMER "Peggy Lee"
INDEX 00 02:07:62
FILE "21 - Touch The Earth.wav" WAVE
INDEX 01 00:00:00
TRACK 22 AUDIO
TITLE "Beautiful, Beatiful World"
PERFORMER "Peggy Lee"
INDEX 00 02:30:35
FILE "22 - Beautiful, Beatiful World.wav" WAVE
INDEX 01 00:00:00
TRACK 23 AUDIO
TITLE "My Guitar"
PERFORMER "Peggy Lee"
INDEX 00 02:38:30
FILE "23 - My Guitar.wav" WAVE
INDEX 01 00:00:00
TRACK 24 AUDIO
TITLE "Call Me"
PERFORMER "Peggy Lee"
INDEX 00 02:48:63
FILE "24 - Call Me.wav" WAVE
INDEX 01 00:00:00
Об альбоме (сборнике)
Pretty Eyes was cut during what has become known to her devotees and discographers as Peggy Lee's second Capitol Records period which ran from 1957-1972. The hiatus between the first and second periods was filled by Lee's association with Decca. Like many of her albums during this time with Capitol, Lee was hooked up with orchestras with large, lush string sections conducted by the likes of Nelson Riddle and even Frank Sinatra. On this 1960 release, it's Billy May with the baton in a rather unusual situation for him. There's no brass in the orchestra, just flutes, woodwinds, and strings. The result is that the arrangements are tame compared to charts May turned out when he had trumpets and trombones to work with. On some tracks, one gets the impression that Lee was bored with some of the complacent arrangements and shows her indifference by having a bit of fun using overly broad vowel pronunciations on such tunes as "Pretty Eyes." But on the better stuff, such as the swinging "It Could Happen to You," "Too Close for Comfort," and "Fly Me to the Moon" (the latter done as a slow ballad), she holds nothing back. Although her bountiful vocal gifts are occasionally held somewhat in check, there's still enough here to satisfy Lee and vocal fans alike.
~~ Dave Nathan, All Music Guide
Guitars Alà Lee is another product of Peggy Lee's second stint with the Capitol label coming after she left Decca and is one of the least satisfactory by the great singer during this period. Working with seven guitars, woodwinds, strings, bass, drums, and, on some cuts, a big band, all unidentified, Lee is asked to work with a set of pop tunes, some of which are well-known, others not. It's neither the fault of Peggy Lee, who is in excellent form, nor arrangers Dave Grusin, Bob Bain, Billy May, and Dick Hazard who prepared the charts for the tunes. It's just that the material they had to work with was wanting, at least compared to many of Lee's other albums. Songs such as "Goodbye, My Love" are shallow and don't present any challenge to the singer, even though she wrote it with Victor Young. It just seems that the powers at Capitol decided that they were going to cut an album with Peggy Lee, backed by all those guitars, and then tasked the arrangers to come up with a play list and charts that fit this thematic scheme. The result is not a total loss by any means. "Nice 'n' Easy" is an effervescent swinger. For "Good Times," Lee turns on the blues faucet, and May's "Call Me" sizzles. On this the album's last cut, the guitars are put away and Lee is backed by a typical May big band. It's just that the listener has put up with less than satisfactory material to get to these gems. This album has been combined with Pretty Eyes and reissued on CD.
~~ Dave Nathan, All Music Guide
Download
Сайт не распространяет и не хранит электронные версии произведений, а лишь предоставляет доступ к создаваемому пользователями каталогу ссылок на торрент-файлы, которые содержат только списки хеш-сумм
Как скачивать? (для скачивания .torrent файлов необходима регистрация)
[Профиль]  [ЛС] 

papa1954

Top Seed 09* 10240r

Стаж: 12 лет 5 месяцев

Сообщений: 16969

papa1954 · 12-Окт-16 01:41 (спустя 1 день 3 часа)

Торрент-файл перезалит, удален битый .pdf
[Профиль]  [ЛС] 
 
Ответить
Loading...
Error